houseofloveradio / Blu-ray 3D 1080p-BAS / [ฝรั่ง]-[เป็นหนัง 3D ที่ลอยมากที่สุดเท่าที่เคยดูมาเลยขอบอก] [3D OU] Sammy’s Adve

[ฝรั่ง]-[เป็นหนัง 3D ที่ลอยมากที่สุดเท่าที่เคยดูมาเลยขอบอก] [3D OU] Sammy’s Adve




Sammy’s Adventures แซมมี่ ต.เต่าซ่าส์ไม่มีเบรก 2010


IMDb : 6.1 http://www.imdb.com/title/tt1230204/

วันที่เข้าฉาย 04 พฤศจิกายน 2553
แนวหนัง อนิเมชั่น 3D
ผู้กำกับ เบน สแตสเซน
นักแสดง แซมมี่ ยูริ โลเวนธัล , เชลลี่ เจนนี แมคคาร์ธีย์ , เรย์ แอนโธนี่ แอนเดอร์สัน , ฟลัฟฟี่ ทิม เคอร์รี่

“มันคงจะดีนะถ้าเราได้ออกไปสำรวจโลก” นับตั้งแต่วินาทีแรกที่เต่าน้อย แซมมี่ ลืมตาดูโลก การเดินทางท่องโลกใต้ทะเลอันแสนกว้างใหญ่ก็เริ่มต้น
นี่เป็นสิ่งที่เต่าทะเลทุกตัวทำก่อนที่จะกลับมาสู่หา ดที่พวกเขาถือกำเนิด แซมมี่ต้องออกไปผจญภัยก่อนที่ตัวเองจะกลับมาพบกับ เชลลี่ คู่แท้ของเขาอีกครั้ง

ตลอดการเดินทาง แซมมี่ และ เรย์ เต่าทะเลเพื่อนซี้ ได้เห็นการกระทำของมนุษย์ที่ทำลายระบบนิเวศวิทยา แต่เขาก็ได้รับความช่วยเหลือจากเพื่อน
มนุษย์คนอื่น แซมมี่ต้องเผชิญหน้ากับปลาปิรันย่า อสรพิษในป่าดงดิบ เจ้าฉลามวายร้าย รวมถึงการค้นพบเส้นทางลับใต้ทะเลลึก… แต่ไม่ว่ากระแสน้ำ
จะเชี่ยวกรากแค่ไหน หรือเขาต้องอยู่ใต้ท้องทะเลไปอีกนานเพียงใด เขาก็จะขยับครีบไปข้างหน้าเรื่อยๆ เพราะเป้าหมายเดียวของการผจญภัยอันตื่นเต้น
และน่าประทับใจก็คือ การที่เขาจะได้พบกับแชลลี่ อีกครั้ง



ปลาตัวนี้ใน IMAX Under The Sea ที่ว่าแน่ๆ ยังต้องยอมสยบให้เจ้า 2 ตัวข้างล่างเนี่ยแหละครับ
ไม่เชื่อรับไปพิสูจน์กันได้ ถ้าไม่เป็นตามที่ผมบอกไว้ผมยินดีให้คุณอมขี้หมามาพ่น ใส่หน้าผมได้เลยครับ 55




ไฟล์นี้ถูก Encoding แบบ 2 pass ซึ่งใช้เวลานานกว่าปกติถึง 2 เท่า จึงใช้เวลาไป 8 ชั่วโมง เพื่อให้ได้งานที่ดีที่สุดครับ
และเหมาะมากสำหรับเอาไว้เปิดทดสอบกับ TV 3D บอกได้คำเดียวว่า ถ้าไม่เก็บแล้วจะผิดหวังเลยครับ


ไฟล์นี้อาจจะต่างกับไฟล์อื่นนิดนึงครับ อันนี้สำคัญครับ ถ้าใครเอาไปเปิดแล้ว ภาพมันดูผิดปกติเหมือนจะมันดูยากๆ ไม่เป็นมิติ
ให้ท่านเซ็ท TV ของท่านอีกนิดหน่อย คือ เข้าโหมด 3D เลือกรวมภาพแบบ บนล่างปกติครับ จากนั้นเข้าไปตั้งค่า 3D ให้เป็น ขวา/ซ้าย นะครับ
แล้วทีนี้ภาพมันก็จะเป็นเหมือนเรื่องอื่นๆที่ท่านเคย ดูครับ (เพราะ TV บางคนอาจจะตั้งค่าเริ่มแรกไว้ที่ ซ้าย/ขวา ครับ ซึ่ง ซ้าย/ขวา มันก็ถูกแล้ว แต่เรื่องนี้มันดันไม่เหมือนชาวบ้านเค้าเอง)






info

General
Complete name : X:[3D OU].Sammy s.Adventures.The.Secret.Passage.2010.Bluray.3D OU.ThaiDTS+Thai_Franken.mkv
Format : Matroska
File size : 13.9 GiB
Duration : 1h 25mn
Overall bit rate : 23.2 Mbps
Encoded date : UTC 2012-04-19 12:03:43
Writing application : mkvmerge v3.2.0 ( Beginnings ) built on Feb 12 2010 16:46:17
Writing library : libebml v0.7.9 + libmatroska v0.8.1

Video
ID : 1
Format : AVC
Format/Info : Advanced Video Codec
Format profile : High@L4.1
Format settings , CABAC : Yes
Format settings , ReFrames : 2 frames
Codec ID : V_MPEG4/ISO/AVC
Duration : 1h 25mn
Bit rate mode : Variable

Bit rate : 20.8 Mbps
Maximum bit rate : 40.0 Mbps
Width : 1 920 pixels
Height : 1 080 pixels
Display aspect ratio : 16:9
Frame rate : 23.976 fps
Color space : YUV
Chroma subsampling : 4:2:0
Bit depth : 8 bits
Scan type : Progressive
Bits/(Pixel*Frame) : 0.419
Stream size : 12.4 GiB (90%)
Title : [3D OU].Sammy s.Adventures.The.Secret.Passage.2010.Bluray.3D OU.ThaiDTS+Thai_Franken
Writing library : x264 core
Language : English
Color primaries : BT.709-5 , BT.1361 , IEC 61966-2-4 , SMPTE RP177
Transfer characteristics : BT.709-5 , BT.1361
Matrix coefficients : BT.709-5 , BT.1361 , IEC 61966-2-4 709 , SMPTE RP177

Audio #1
ID : 2
Format : AC-3
Format/Info : Audio Coding 3
Mode extension : CM (complete main)
Codec ID : A_AC3
Duration : 1h 25mn
Bit rate mode : Constant
Bit rate : 448 Kbps
Channel(s) : 6 channels
Channel positions : Front: L C R , Side: L R , LFE
Sampling rate : 48.0 KHz
Bit depth : 16 bits
Compression mode : Lossy
Stream size : 274 MiB (2%)
Title : Thai AC3 5.1 Master
Language : Thai

Audio #2
ID : 3
Format : DTS
Format/Info : Digital Theater Systems
Codec ID : A_DTS
Duration : 1h 25mn
Bit rate mode : Constant
Bit rate : 1 510 Kbps
Channel(s) : 6 channels
Channel positions : Front: L C R , Side: L R , LFE
Sampling rate : 48.0 KHz
Bit depth : 24 bits
Compression mode : Lossy
Stream size : 923 MiB (6%)
Title : ThaiDTS 1510 kbps Master
Language : Thai



SS


สังเกตุที่ SS รูปงู ก็น่าจะพอนึกถาพออกว่าจะลอยแค่ไหน เพราะมุมมองต่างกันมากมาย




http://www.filecondo.com/dl.php?f=Ld3e9f1sloDd

vilanyaTue Jun 26 2012 03:56:37 GMT+0700 (ICT)